  0
SECTION
  2
HEADER
  9
$ACADVER
  1
AC1014
  9
$ACADMAINTVER
 70
     9
  9
$DWGCODEPAGE
  3
ANSI_1252
  9
$INSBASE
 10
0.0
 20
0.0
 30
0.0
  9
$EXTMIN
 10
4.705456679045246
 20
3.74085911240025
 30
0.0
  9
$EXTMAX
 10
7.923611279670064
 20
7.886588852447324
 30
0.0
  9
$LIMMIN
 10
0.0
 20
0.0
  9
$LIMMAX
 10
12.0
 20
9.0
  9
$ORTHOMODE
 70
     0
  9
$REGENMODE
 70
     1
  9
$FILLMODE
 70
     1
  9
$QTEXTMODE
 70
     0
  9
$MIRRTEXT
 70
     1
  9
$DRAGMODE
 70
     2
  9
$LTSCALE
 40
1.0
  9
$OSMODE
 70
     0
  9
$ATTMODE
 70
     1
  9
$TEXTSIZE
 40
0.2
  9
$TRACEWID
 40
0.05
  9
$TEXTSTYLE
  7
STANDARD
  9
$CLAYER
  8
0
  9
$CELTYPE
  6
BYLAYER
  9
$CECOLOR
 62
   256
  9
$CELTSCALE
 40
1.0
  9
$DELOBJ
 70
     1
  9
$DISPSILH
 70
     0
  9
$DIMSCALE
 40
1.0
  9
$DIMASZ
 40
0.18
  9
$DIMEXO
 40
0.0625
  9
$DIMDLI
 40
0.38
  9
$DIMRND
 40
0.0
  9
$DIMDLE
 40
0.0
  9
$DIMEXE
 40
0.18
  9
$DIMTP
 40
0.0
  9
$DIMTM
 40
0.0
  9
$DIMTXT
 40
0.18
  9
$DIMCEN
 40
0.09
  9
$DIMTSZ
 40
0.0
  9
$DIMTOL
 70
     0
  9
$DIMLIM
 70
     0
  9
$DIMTIH
 70
     1
  9
$DIMTOH
 70
     1
  9
$DIMSE1
 70
     0
  9
$DIMSE2
 70
     0
  9
$DIMTAD
 70
     0
  9
$DIMZIN
 70
     0
  9
$DIMBLK
  1

  9
$DIMASO
 70
     1
  9
$DIMSHO
 70
     1
  9
$DIMPOST
  1

  9
$DIMAPOST
  1

  9
$DIMALT
 70
     0
  9
$DIMALTD
 70
     2
  9
$DIMALTF
 40
25.4
  9
$DIMLFAC
 40
1.0
  9
$DIMTOFL
 70
     0
  9
$DIMTVP
 40
0.0
  9
$DIMTIX
 70
     0
  9
$DIMSOXD
 70
     0
  9
$DIMSAH
 70
     0
  9
$DIMBLK1
  1

  9
$DIMBLK2
  1

  9
$DIMSTYLE
  2
STANDARD
  9
$DIMCLRD
 70
     0
  9
$DIMCLRE
 70
     0
  9
$DIMCLRT
 70
     0
  9
$DIMTFAC
 40
1.0
  9
$DIMGAP
 40
0.09
  9
$DIMJUST
 70
     0
  9
$DIMSD1
 70
     0
  9
$DIMSD2
 70
     0
  9
$DIMTOLJ
 70
     1
  9
$DIMTZIN
 70
     0
  9
$DIMALTZ
 70
     0
  9
$DIMALTTZ
 70
     0
  9
$DIMFIT
 70
     3
  9
$DIMUPT
 70
     0
  9
$DIMUNIT
 70
     2
  9
$DIMDEC
 70
     2
  9
$DIMTDEC
 70
     2
  9
$DIMALTU
 70
     2
  9
$DIMALTTD
 70
     2
  9
$DIMTXSTY
  7
STANDARD
  9
$DIMAUNIT
 70
     0
  9
$LUNITS
 70
     2
  9
$LUPREC
 70
     4
  9
$SKETCHINC
 40
0.1
  9
$FILLETRAD
 40
0.5
  9
$AUNITS
 70
     0
  9
$AUPREC
 70
     0
  9
$MENU
  1
.
  9
$ELEVATION
 40
0.0
  9
$PELEVATION
 40
0.0
  9
$THICKNESS
 40
0.0
  9
$LIMCHECK
 70
     0
  9
$BLIPMODE
 70
     0
  9
$CHAMFERA
 40
0.5
  9
$CHAMFERB
 40
0.5
  9
$CHAMFERC
 40
1.0
  9
$CHAMFERD
 40
0.0
  9
$SKPOLY
 70
     0
  9
$TDCREATE
 40
2452181.660798495
  9
$TDUPDATE
 40
2452643.338916319
  9
$TDINDWG
 40
0.0022510417
  9
$TDUSRTIMER
 40
0.0022510417
  9
$USRTIMER
 70
     1
  9
$ANGBASE
 50
0.0
  9
$ANGDIR
 70
     0
  9
$PDMODE
 70
     0
  9
$PDSIZE
 40
0.0
  9
$PLINEWID
 40
0.0
  9
$COORDS
 70
     1
  9
$SPLFRAME
 70
     0
  9
$SPLINETYPE
 70
     6
  9
$SPLINESEGS
 70
     8
  9
$ATTDIA
 70
     1
  9
$ATTREQ
 70
     1
  9
$HANDLING
 70
-16383
  9
$HANDSEED
  5
19A
  9
$SURFTAB1
 70
     6
  9
$SURFTAB2
 70
     6
  9
$SURFTYPE
 70
     6
  9
$SURFU
 70
     6
  9
$SURFV
 70
     6
  9
$UCSNAME
  2

  9
$UCSORG
 10
0.0
 20
0.0
 30
0.0
  9
$UCSXDIR
 10
1.0
 20
0.0
 30
0.0
  9
$UCSYDIR
 10
0.0
 20
1.0
 30
0.0
  9
$PUCSNAME
  2

  9
$PUCSORG
 10
0.0
 20
0.0
 30
0.0
  9
$PUCSXDIR
 10
1.0
 20
0.0
 30
0.0
  9
$PUCSYDIR
 10
0.0
 20
1.0
 30
0.0
  9
$USERI1
 70
     0
  9
$USERI2
 70
     0
  9
$USERI3
 70
     0
  9
$USERI4
 70
     0
  9
$USERI5
 70
     0
  9
$USERR1
 40
0.0
  9
$USERR2
 40
0.0
  9
$USERR3
 40
0.0
  9
$USERR4
 40
0.0
  9
$USERR5
 40
0.0
  9
$WORLDVIEW
 70
     1
  9
$SHADEDGE
 70
     3
  9
$SHADEDIF
 70
    70
  9
$TILEMODE
 70
     1
  9
$MAXACTVP
 70
    64
  9
$PINSBASE
 10
0.0
 20
0.0
 30
0.0
  9
$PLIMCHECK
 70
     0
  9
$PEXTMIN
 10
1.000000000000000E+20
 20
1.000000000000000E+20
 30
1.000000000000000E+20
  9
$PEXTMAX
 10
-1.000000000000000E+20
 20
-1.000000000000000E+20
 30
-1.000000000000000E+20
  9
$PLIMMIN
 10
0.0
 20
0.0
  9
$PLIMMAX
 10
12.0
 20
9.0
  9
$UNITMODE
 70
     0
  9
$VISRETAIN
 70
     1
  9
$PLINEGEN
 70
     0
  9
$PSLTSCALE
 70
     1
  9
$TREEDEPTH
 70
  3020
  9
$PICKSTYLE
 70
     1
  9
$CMLSTYLE
  2
STANDARD
  9
$CMLJUST
 70
     0
  9
$CMLSCALE
 40
1.0
  9
$PROXYGRAPHICS
 70
     1
  9
$MEASUREMENT
 70
     0
  0
ENDSEC
  0
SECTION
  2
CLASSES
  0
CLASS
  1
ACDBDICTIONARYWDFLT
  2
AcDbDictionaryWithDefault
  3
AutoCAD 2000
 90
        0
280
     0
281
     0
  0
CLASS
  1
ACDBPLACEHOLDER
  2
AcDbPlaceHolder
  3
AutoCAD 2000
 90
        0
280
     0
281
     0
  0
CLASS
  1
LAYOUT
  2
AcDbLayout
  3
AutoCAD 2000
 90
        0
280
     0
281
     0
  0
CLASS
  1
LONG_TRANSACTION
  2
AcDbLongTransaction
  3
AutoCAD 2000
 90
        0
280
     0
281
     0
  0
CLASS
  1
LWPOLYLINE
  2
AcDbPolyline
  3
AutoCAD 2000
 90
        0
280
     0
281
     1
  0
CLASS
  1
HATCH
  2
AcDbHatch
  3
AutoCAD 2000
 90
        0
280
     0
281
     1
  0
CLASS
  1
XRECORD
  2
AcDbXrecord
  3
AutoCAD 2000
 90
        0
280
     0
281
     0
  0
ENDSEC
  0
SECTION
  2
TABLES
  0
TABLE
  2
VPORT
  5
8
330
0
100
AcDbSymbolTable
 70
     3
  0
VPORT
  5
173
330
8
100
AcDbSymbolTableRecord
100
AcDbViewportTableRecord
  2
*ACTIVE
 70
     0
 10
0.0
 20
0.0
 11
1.0
 21
1.0
 12
6.58133144125172
 22
5.283088231257247
 13
0.0
 23
0.0
 14
0.5
 24
0.5
 15
0.5
 25
0.5
 16
0.0
 26
0.0
 36
1.0
 17
0.0
 27
0.0
 37
0.0
 40
9.000383529783603
 41
1.462515883100381
 42
50.0
 43
0.0
 44
0.0
 50
0.0
 51
0.0
 71
     0
 72
   100
 73
     1
 74
     3
 75
     0
 76
     0
 77
     0
 78
     0
  0
ENDTAB
  0
TABLE
  2
LTYPE
  5
5
330
0
100
AcDbSymbolTable
 70
     1
  0
LTYPE
  5
14
330
5
100
AcDbSymbolTableRecord
100
AcDbLinetypeTableRecord
  2
BYBLOCK
 70
     0
  3

 72
    65
 73
     0
 40
0.0
  0
LTYPE
  5
15
330
5
100
AcDbSymbolTableRecord
100
AcDbLinetypeTableRecord
  2
BYLAYER
 70
     0
  3

 72
    65
 73
     0
 40
0.0
  0
LTYPE
  5
16
330
5
100
AcDbSymbolTableRecord
100
AcDbLinetypeTableRecord
  2
CONTINUOUS
 70
     0
  3
Solid line
 72
    65
 73
     0
 40
0.0
  0
ENDTAB
  0
TABLE
  2
LAYER
  5
2
330
0
100
AcDbSymbolTable
 70
     4
  0
LAYER
  5
10
330
2
100
AcDbSymbolTableRecord
100
AcDbLayerTableRecord
  2
0
 70
     0
 62
     7
  6
CONTINUOUS
  0
LAYER
  5
34
330
2
100
AcDbSymbolTableRecord
100
AcDbLayerTableRecord
  2
L
 70
     0
 62
     7
  6
CONTINUOUS
  0
LAYER
  5
45
330
2
100
AcDbSymbolTableRecord
100
AcDbLayerTableRecord
  2
DEFPOINTS
 70
     0
 62
     7
  6
CONTINUOUS
  0
LAYER
  5
88
330
2
100
AcDbSymbolTableRecord
100
AcDbLayerTableRecord
  2
TX
 70
     0
 62
   150
  6
CONTINUOUS
  0
ENDTAB
  0
TABLE
  2
STYLE
  5
3
330
0
100
AcDbSymbolTable
 70
     3
  0
STYLE
  5
11
330
3
100
AcDbSymbolTableRecord
100
AcDbTextStyleTableRecord
  2
STANDARD
 70
     0
 40
0.0
 41
1.0
 50
0.0
 71
     0
 42
0.2
  3
txt
  4

  0
STYLE
  5
35
330
3
100
AcDbSymbolTableRecord
100
AcDbTextStyleTableRecord
  2
REG
 70
     0
 40
0.0
 41
1.0
 50
0.0
 71
     0
 42
0.09375
  3
E:\R13\com\fonts\ARCHITXT.SHX
  4

  0
STYLE
  5
36
330
3
100
AcDbSymbolTableRecord
100
AcDbTextStyleTableRecord
  2
DIMTXT
 70
     0
 40
0.0
 41
1.0
 50
0.0
 71
     0
 42
1.125
  3
archt.shx
  4

  0
ENDTAB
  0
TABLE
  2
VIEW
  5
6
330
0
100
AcDbSymbolTable
 70
     0
  0
ENDTAB
  0
TABLE
  2
UCS
  5
7
330
0
100
AcDbSymbolTable
 70
     0
  0
ENDTAB
  0
TABLE
  2
APPID
  5
9
330
0
100
AcDbSymbolTable
 70
     1
  0
APPID
  5
12
330
9
100
AcDbSymbolTableRecord
100
AcDbRegAppTableRecord
  2
ACAD
 70
     0
  0
ENDTAB
  0
TABLE
  2
DIMSTYLE
  5
A
330
0
100
AcDbSymbolTable
 70
     6
  0
DIMSTYLE
105
27
102
{ACAD_REACTORS
330
C1
330
CF
102
}
330
A
100
AcDbSymbolTableRecord
100
AcDbDimStyleTableRecord
  2
STANDARD
 70
     0
  3

  4

  5

  6

  7

 40
1.0
 41
0.18
 42
0.0625
 43
0.38
 44
0.18
 45
0.0
 46
0.0
 47
0.0
 48
0.0
140
0.18
141
0.09
142
0.0
143
25.4
144
1.0
145
0.0
146
1.0
147
0.09
 71
     0
 72
     0
 73
     1
 74
     1
 75
     0
 76
     0
 77
     0
 78
     0
170
     0
171
     2
172
     0
173
     0
174
     0
175
     0
176
     0
177
     0
178
     0
270
     2
271
     2
272
     2
273
     2
274
     2
340
11
275
     0
280
     0
281
     0
282
     0
283
     1
284
     0
285
     0
286
     0
287
     3
288
     0
  0
DIMSTYLE
105
37
330
A
100
AcDbSymbolTableRecord
100
AcDbDimStyleTableRecord
  2
1
 70
     0
  3

  4

  5

  6

  7

 40
1.0
 41
1.125
 42
0.5
 43
0.375
 44
1.19921875
 45
0.0
 46
0.5
 47
0.0
 48
0.0
140
1.125
141
0.125
142
0.0
143
25.4
144
1.0
145
0.0
146
0.8
147
0.5625
 71
     0
 72
     0
 73
     0
 74
     0
 75
     0
 76
     0
 77
     1
 78
     3
170
     0
171
     2
172
     1
173
     0
174
     1
175
     0
176
   133
177
   133
178
   150
270
     2
271
     3
272
     3
273
     2
274
     2
340
36
275
     0
280
     0
281
     0
282
     0
283
     1
284
     0
285
     0
286
     0
287
     4
288
     0
  0
DIMSTYLE
105
38
330
A
100
AcDbSymbolTableRecord
100
AcDbDimStyleTableRecord
  2
1$2
 70
     0
  3

  4

  5
DOTSMALL
  6

  7

 40
1.0
 41
1.5
 42
0.5
 43
0.375
 44
1.19921875
 45
0.0
 46
0.5
 47
0.0
 48
0.0
140
0.75
141
0.125
142
0.0
143
25.4
144
1.0
145
0.0
146
0.8
147
0.5625
 71
     0
 72
     0
 73
     0
 74
     0
 75
     0
 76
     0
 77
     1
 78
     3
170
     0
171
     2
172
     1
173
     0
174
     1
175
     0
176
   133
177
   133
178
   150
270
     2
271
     3
272
     3
273
     2
274
     2
340
36
275
     0
280
     0
281
     0
282
     0
283
     1
284
     0
285
     0
286
     0
287
     4
288
     0
  0
DIMSTYLE
105
39
330
A
100
AcDbSymbolTableRecord
100
AcDbDimStyleTableRecord
  2
1$4
 70
     0
  3

  4

  5

  6

  7
DOTSMALL
 40
1.0
 41
1.5
 42
0.5
 43
0.375
 44
1.19921875
 45
0.0
 46
0.5
 47
0.0
 48
0.0
140
0.75
141
0.125
142
0.0
143
25.4
144
1.0
145
0.0
146
0.8
147
0.5625
 71
     0
 72
     0
 73
     0
 74
     0
 75
     0
 76
     0
 77
     1
 78
     3
170
     0
171
     2
172
     1
173
     1
174
     1
175
     0
176
   133
177
   133
178
   150
270
     2
271
     3
272
     3
273
     2
274
     2
340
36
275
     0
280
     0
281
     0
282
     0
283
     1
284
     0
285
     0
286
     0
287
     4
288
     0
  0
DIMSTYLE
105
3A
330
A
100
AcDbSymbolTableRecord
100
AcDbDimStyleTableRecord
  2
1$3
 70
     0
  3

  4

  5
DOTSMALL
  6

  7

 40
1.0
 41
1.5
 42
0.5
 43
0.375
 44
1.19921875
 45
0.0
 46
0.5
 47
0.0
 48
0.0
140
0.75
141
0.125
142
0.0
143
25.4
144
1.0
145
0.0
146
0.8
147
0.5625
 71
     0
 72
     0
 73
     0
 74
     0
 75
     0
 76
     0
 77
     1
 78
     3
170
     0
171
     2
172
     1
173
     0
174
     1
175
     0
176
   133
177
   133
178
   150
270
     2
271
     3
272
     3
273
     2
274
     2
340
36
275
     0
280
     0
281
     0
282
     0
283
     1
284
     0
285
     0
286
     0
287
     4
288
     0
  0
DIMSTYLE
105
3B
330
A
100
AcDbSymbolTableRecord
100
AcDbDimStyleTableRecord
  2
1$7
 70
     0
  3

  4

  5

  6

  7

 40
1.0
 41
1.0
 42
0.5
 43
0.375
 44
1.19921875
 45
0.0
 46
0.5
 47
0.0
 48
0.0
140
0.75
141
0.125
142
0.0
143
25.4
144
1.0
145
0.0
146
0.8
147
0.5625
 71
     0
 72
     0
 73
     0
 74
     0
 75
     0
 76
     0
 77
     1
 78
     3
170
     0
171
     2
172
     1
173
     0
174
     1
175
     0
176
   133
177
   133
178
   150
270
     2
271
     3
272
     3
273
     2
274
     2
340
36
275
     0
280
     0
281
     0
282
     0
283
     1
284
     0
285
     0
286
     0
287
     4
288
     0
  0
ENDTAB
  0
TABLE
  2
BLOCK_RECORD
  5
1
330
0
100
AcDbSymbolTable
 70
     5
  0
BLOCK_RECORD
  5
1F
102
{ACAD_XDICTIONARY
360
196
102
}
330
1
100
AcDbSymbolTableRecord
100
AcDbBlockTableRecord
  2
*MODEL_SPACE
  0
BLOCK_RECORD
  5
1B
102
{ACAD_XDICTIONARY
360
194
102
}
330
1
100
AcDbSymbolTableRecord
100
AcDbBlockTableRecord
  2
*PAPER_SPACE
  0
BLOCK_RECORD
  5
2B
330
1
100
AcDbSymbolTableRecord
100
AcDbBlockTableRecord
  2
_DOT
  0
BLOCK_RECORD
  5
30
330
1
100
AcDbSymbolTableRecord
100
AcDbBlockTableRecord
  2
_DOTSMALL
  0
BLOCK_RECORD
  5
C2
330
1
100
AcDbSymbolTableRecord
100
AcDbBlockTableRecord
  2
*D3
  0
BLOCK_RECORD
  5
D0
330
1
100
AcDbSymbolTableRecord
100
AcDbBlockTableRecord
  2
*D4
  0
ENDTAB
  0
ENDSEC
  0
SECTION
  2
BLOCKS
  0
BLOCK
  5
20
330
1F
100
AcDbEntity
  8
0
100
AcDbBlockBegin
  2
*MODEL_SPACE
 70
     0
 10
0.0
 20
0.0
 30
0.0
  3
*MODEL_SPACE
  1

  0
ENDBLK
  5
21
330
1F
100
AcDbEntity
  8
0
100
AcDbBlockEnd
  0
BLOCK
  5
1C
330
1B
100
AcDbEntity
 67
     1
  8
0
100
AcDbBlockBegin
  2
*PAPER_SPACE
 70
     0
 10
0.0
 20
0.0
 30
0.0
  3
*PAPER_SPACE
  1

  0
ENDBLK
  5
1D
330
1B
100
AcDbEntity
 67
     1
  8
0
100
AcDbBlockEnd
  0
BLOCK
  5
2E
330
2B
100
AcDbEntity
  8
0
100
AcDbBlockBegin
  2
_DOT
 70
     0
 10
0.0
 20
0.0
 30
0.0
  3
_DOT
  1

  0
LWPOLYLINE
  5
2C
330
2B
100
AcDbEntity
  8
L
 62
     0
100
AcDbPolyline
 90
        2
 70
     1
 43
0.5
 10
-0.25
 20
0.0
 42
1.0
 10
0.25
 20
0.0
 42
1.0
  0
LINE
  5
2D
330
2B
100
AcDbEntity
  8
L
 62
     0
100
AcDbLine
 10
-0.5
 20
0.0
 30
0.0
 11
-1.0
 21
0.0
 31
0.0
  0
ENDBLK
  5
2F
330
2B
100
AcDbEntity
  8
0
100
AcDbBlockEnd
  0
BLOCK
  5
32
330
30
100
AcDbEntity
  8
0
 48
0.116666
100
AcDbBlockBegin
  2
_DOTSMALL
 70
     0
 10
0.0
 20
0.0
 30
0.0
  3
_DOTSMALL
  1

  0
LWPOLYLINE
  5
31
330
30
100
AcDbEntity
  8
0
  6
BYBLOCK
 62
     0
100
AcDbPolyline
 90
        2
 70
     1
 43
0.5
 10
-0.0625
 20
0.0
 42
1.0
 10
0.0625
 20
0.0
 42
1.0
  0
ENDBLK
  5
33
330
30
100
AcDbEntity
  8
0
 48
0.116666
100
AcDbBlockEnd
  0
BLOCK
  5
CD
330
C2
100
AcDbEntity
  8
0
100
AcDbBlockBegin
  2
*D3
 70
     1
 10
0.0
 20
0.0
 30
0.0
  3
*D3
  1

  0
LINE
  5
DD
330
C2
100
AcDbEntity
  8
0
 62
     0
100
AcDbLine
 10
5.559690969453445
 20
7.269224297436192
 30
0.0
 11
4.795456679045249
 21
7.269224297436192
 31
0.0
  0
LINE
  5
DE
330
C2
100
AcDbEntity
  8
0
 62
     0
100
AcDbLine
 10
5.559690969453445
 20
4.519224297436306
 30
0.0
 11
4.795456679045248
 21
4.519224297436306
 31
0.0
  0
LINE
  5
DF
330
C2
100
AcDbEntity
  8
0
 62
     0
100
AcDbLine
 10
4.975456679045248
 20
7.089224297436192
 30
0.0
 11
4.975456679045248
 21
6.074224297436249
 31
0.0
  0
LINE
  5
E0
330
C2
100
AcDbEntity
  8
0
 62
     0
100
AcDbLine
 10
4.975456679045247
 20
4.699224297436305
 30
0.0
 11
4.975456679045247
 21
5.714224297436249
 31
0.0
  0
SOLID
  5
E1
330
C2
100
AcDbEntity
  8
0
 62
     0
100
AcDbTrace
 10
4.945456679045248
 20
7.089224297436192
 30
0.0
 11
5.005456679045249
 21
7.089224297436192
 31
0.0
 12
4.975456679045248
 22
7.269224297436192
 32
0.0
 13
4.975456679045248
 23
7.269224297436192
 33
0.0
  0
SOLID
  5
E2
330
C2
100
AcDbEntity
  8
0
 62
     0
100
AcDbTrace
 10
4.945456679045247
 20
4.699224297436305
 30
0.0
 11
5.005456679045248
 21
4.699224297436305
 31
0.0
 12
4.975456679045247
 22
4.519224297436306
 32
0.0
 13
4.975456679045247
 23
4.519224297436306
 33
0.0
  0
MTEXT
  5
E3
330
C2
100
AcDbEntity
  8
0
 62
     0
100
AcDbMText
 10
4.975456679045247
 20
5.89422429743625
 30
0.0
 40
0.18
 41
0.0
 71
     5
 72
     1
  1
\A1;2.75
1001
ACAD
1000
MTEXTBEGIN
1070
    73
1070
     1
1070
    44
1040
1.0
1070
    74
1070
     0
1000
MTEXTEND
  0
POINT
  5
E4
330
C2
100
AcDbEntity
  8
DEFPOINTS
 62
     0
100
AcDbPoint
 10
5.622190969453445
 20
7.269224297436192
 30
0.0
  0
POINT
  5
E5
330
C2
100
AcDbEntity
  8
DEFPOINTS
 62
     0
100
AcDbPoint
 10
5.622190969453445
 20
4.519224297436306
 30
0.0
  0
POINT
  5
E6
330
C2
100
AcDbEntity
  8
DEFPOINTS
 62
     0
100
AcDbPoint
 10
4.975456679045247
 20
4.519224297436306
 30
0.0
  0
ENDBLK
  5
CE
330
C2
100
AcDbEntity
  8
0
100
AcDbBlockEnd
  0
BLOCK
  5
DB
330
D0
100
AcDbEntity
  8
0
100
AcDbBlockBegin
  2
*D4
 70
     1
 10
0.0
 20
0.0
 30
0.0
  3
*D4
  1

  0
LINE
  5
D1
330
D0
100
AcDbEntity
  8
0
 62
     0
100
AcDbLine
 10
5.602190969453463
 20
7.31172429743621
 30
0.0
 11
5.602190969453463
 21
7.886588852447324
 31
0.0
  0
LINE
  5
D2
330
D0
100
AcDbEntity
  8
0
 62
     0
100
AcDbLine
 10
7.91719096945329
 20
6.280724297436375
 30
0.0
 11
7.91719096945329
 21
7.886588852447324
 31
0.0
  0
LINE
  5
D3
330
D0
100
AcDbEntity
  8
0
 62
     0
100
AcDbLine
 10
5.782190969453463
 20
7.706588852447325
 30
0.0
 11
6.399690969453376
 21
7.706588852447325
 31
0.0
  0
LINE
  5
D4
330
D0
100
AcDbEntity
  8
0
 62
     0
100
AcDbLine
 10
7.73719096945329
 20
7.706588852447325
 30
0.0
 11
7.119690969453377
 21
7.706588852447325
 31
0.0
  0
SOLID
  5
D5
330
D0
100
AcDbEntity
  8
0
 62
     0
100
AcDbTrace
 10
5.782190969453463
 20
7.736588852447325
 30
0.0
 11
5.782190969453463
 21
7.676588852447324
 31
0.0
 12
5.602190969453463
 22
7.706588852447325
 32
0.0
 13
5.602190969453463
 23
7.706588852447325
 33
0.0
  0
SOLID
  5
D6
330
D0
100
AcDbEntity
  8
0
 62
     0
100
AcDbTrace
 10
7.73719096945329
 20
7.736588852447325
 30
0.0
 11
7.73719096945329
 21
7.676588852447324
 31
0.0
 12
7.91719096945329
 22
7.706588852447325
 32
0.0
 13
7.91719096945329
 23
7.706588852447325
 33
0.0
  0
MTEXT
  5
D7
330
D0
100
AcDbEntity
  8
0
 62
     0
100
AcDbMText
 10
6.759690969453377
 20
7.706588852447325
 30
0.0
 40
0.18
 41
0.0
 71
     5
 72
     1
  1
\A1;2.32
1001
ACAD
1000
MTEXTBEGIN
1070
    73
1070
     1
1070
    44
1040
1.0
1070
    74
1070
     0
1000
MTEXTEND
  0
POINT
  5
D8
330
D0
100
AcDbEntity
  8
DEFPOINTS
 62
     0
100
AcDbPoint
 10
5.602190969453463
 20
7.24922429743621
 30
0.0
  0
POINT
  5
D9
330
D0
100
AcDbEntity
  8
DEFPOINTS
 62
     0
100
AcDbPoint
 10
7.91719096945329
 20
6.218224297436375
 30
0.0
  0
POINT
  5
DA
330
D0
100
AcDbEntity
  8
DEFPOINTS
 62
     0
100
AcDbPoint
 10
7.91719096945329
 20
7.706588852447325
 30
0.0
  0
ENDBLK
  5
DC
330
D0
100
AcDbEntity
  8
0
100
AcDbBlockEnd
  0
ENDSEC
  0
SECTION
  2
ENTITIES
  0
TEXT
  5
BD
330
1F
100
AcDbEntity
  8
TX
 48
0.116666
100
AcDbText
 10
5.201428416142309
 20
3.744091871020941
 30
0.0
 40
0.09375
  1
SCALE : FULL SIZE
  7
REG
 11
5.201428416142309
 21
3.837841871020941
 31
0.0
100
AcDbText
 73
     3
  0
LWPOLYLINE
  5
BE
330
1F
100
AcDbEntity
  8
L
 62
     5
 48
0.116666
100
AcDbPolyline
 90
        2
 70
     0
 43
0.028125
 10
5.107692573461211
 20
3.931577713701926
 10
7.84423244415095
 20
3.931577713701926
  0
TEXT
  5
BF
330
1F
100
AcDbEntity
  8
L
 62
     3
 48
0.116666
100
AcDbText
 10
5.201428416142309
 20
4.025313556382911
 30
0.0
 40
0.140625
  1
2 3/4" DIVIDER #2128
  7
REG
100
AcDbText
  0
DIMENSION
  5
C1
330
1F
100
AcDbEntity
  8
0
100
AcDbDimension
  2
*D3
 10
4.975456679045247
 20
4.519224297436306
 30
0.0
 11
4.975456679045247
 21
5.89422429743625
 31
0.0
 70
    32
  3
STANDARD
100
AcDbAlignedDimension
 13
5.622190969453445
 23
7.269224297436192
 33
0.0
 14
5.622190969453445
 24
4.519224297436306
 34
0.0
 50
90.0
100
AcDbRotatedDimension
  0
DIMENSION
  5
CF
330
1F
100
AcDbEntity
  8
0
100
AcDbDimension
  2
*D4
 10
7.91719096945329
 20
7.706588852447325
 30
0.0
 11
6.759690969453377
 21
7.706588852447325
 31
0.0
 70
    32
  3
STANDARD
100
AcDbAlignedDimension
 13
5.602190969453463
 23
7.24922429743621
 33
0.0
 14
7.91719096945329
 24
6.218224297436375
 34
0.0
100
AcDbRotatedDimension
  0
LWPOLYLINE
  5
133
330
1F
100
AcDbEntity
  8
L
 62
     5
100
AcDbPolyline
 90
       63
 70
     1
 43
0.0
 10
7.852190969453463
 20
5.94422429743626
 10
7.852190969453463
 20
6.189224297436378
 42
0.4142135623730951
 10
7.842190969453472
 20
6.199224297436369
 10
7.752190969453781
 20
6.199224297436369
 42
-1.000000000000003
 10
7.752190969453781
 20
6.249224297436324
 10
7.886190969453341
 20
6.249224297436324
 42
-0.4142135623730951
 10
7.91719096945329
 20
6.218224297436375
 10
7.91719096945328
 20
5.570224297436123
 42
-0.4142135623730951
 10
7.886190969453341
 20
5.539224297436174
 10
7.752190969453554
 20
5.53922429743606
 42
-1.000000000000003
 10
7.752190969453554
 20
5.589224297436242
 10
7.842190969453472
 20
5.589224297436138
 42
0.4142135623797547
 10
7.852190969453463
 20
5.599224297436119
 10
7.852190969453013
 20
5.844224297436351
 42
0.4142135623664355
 10
7.842190969453245
 20
5.854224297436342
 10
6.737190969453227
 20
5.854224297436338
 42
0.4142135623730951
 10
6.727190969453236
 20
5.844224297436351
 10
6.727190969453459
 20
5.599224297436233
 42
0.4142135623730951
 10
6.737190969453454
 20
5.589224297436242
 10
6.852190969453463
 20
5.589224297436299
 42
-1.000000000000003
 10
6.852190969453463
 20
5.539224297436401
 10
6.758190969453412
 20
5.539224297436401
 42
0.4142135623730951
 10
6.727190969453463
 20
5.508224297436452
 10
6.727190969453463
 20
4.550224297436141
 42
-0.4142135623730951
 10
6.696190969453514
 20
4.519224297436192
 10
6.267190969453199
 20
4.519224297436193
 42
-1.589784853870614
 10
6.298415959445069
 20
4.584224297436247
 10
6.60019096945351
 20
4.584224297436315
 42
0.4142135623730951
 10
6.662190969453408
 20
4.646224297436258
 10
6.662190969453249
 20
5.792224297436444
 42
0.4142135623730951
 10
6.600190969453283
 20
5.854224297436456
 10
5.729190969453416
 20
5.854224297436402
 42
0.4142135623736322
 10
5.667190969453518
 20
5.79222429743633
 10
5.667190969453446
 20
4.646224297436486
 42
0.4142135623730951
 10
5.729190969453416
 20
4.584224297436474
 10
5.90596597946148
 20
4.584224297436367
 42
-1.589784853856281
 10
5.937190969453499
 20
4.519224297436306
 10
5.622190969453445
 20
4.519224297436306
 42
-0.4142135623730951
 10
5.602190969453463
 20
4.539224297436287
 10
5.602190969453463
 20
7.24922429743621
 42
-0.4142135623730951
 10
5.622190969453445
 20
7.269224297436192
 10
5.937190969453499
 20
7.269224297436246
 42
-1.589784853862469
 10
5.90596597946163
 20
7.204224297436137
 10
5.729190969453416
 20
7.204224297436096
 42
0.4142135623736322
 10
5.667190969453518
 20
7.142224297436012
 10
5.667190969453518
 20
5.934224297436156
 10
6.600190969453283
 20
5.934224297436209
 42
0.4142135623736325
 10
6.662190969453181
 20
5.996224297436281
 10
6.662190969453238
 20
7.142224297436239
 42
0.414213562373632
 10
6.600190969453283
 20
7.204224297436251
 10
6.298415959445256
 20
7.204224297436284
 42
-1.589784853867559
 10
6.267190969453199
 20
7.269224297436192
 10
6.696190969453287
 20
7.269224297436188
 42
-0.4142135623730951
 10
6.727190969453236
 20
7.238224297436243
 10
6.727190969453236
 20
6.280224297436273
 42
0.4142135623730951
 10
6.758190969453185
 20
6.249224297436324
 10
6.852190969453463
 20
6.249224297436324
 42
-1.000000000000003
 10
6.852190969453463
 20
6.199224297436597
 10
6.737190969453227
 20
6.199224297436597
 42
0.4142135623664355
 10
6.727190969453236
 20
6.189224297436606
 10
6.727190969453463
 20
5.94422429743626
 42
0.4142135623664355
 10
6.737190969453227
 20
5.934224297436269
 10
7.842190969453472
 20
5.934224297436269
 42
0.4142135623730951
  0
ENDSEC
  0
SECTION
  2
OBJECTS
  0
DICTIONARY
  5
C
330
0
100
AcDbDictionary
  3
ACAD_GROUP
350
D
  3
ACAD_LAYOUT
350
1A
  3
ACAD_MLINESTYLE
350
17
  3
ACAD_PLOTSETTINGS
350
19
  3
ACAD_PLOTSTYLENAME
350
E
  3
ACDBHEADERROUNDTRIPXREC
350
174
  0
DICTIONARY
  5
196
330
1F
100
AcDbDictionary
280
     1
  3
ACAD_LAYOUTSELFREF
360
197
  0
DICTIONARY
  5
194
330
1B
100
AcDbDictionary
280
     1
  3
ACAD_LAYOUTSELFREF
360
195
  0
DICTIONARY
  5
D
102
{ACAD_REACTORS
330
C
102
}
330
C
100
AcDbDictionary
  0
DICTIONARY
  5
1A
102
{ACAD_REACTORS
330
C
102
}
330
C
100
AcDbDictionary
  0
DICTIONARY
  5
17
102
{ACAD_REACTORS
330
C
102
}
330
C
100
AcDbDictionary
  3
STANDARD
350
18
  0
DICTIONARY
  5
19
102
{ACAD_REACTORS
330
C
102
}
330
C
100
AcDbDictionary
  0
ACDBDICTIONARYWDFLT
  5
E
102
{ACAD_REACTORS
330
C
102
}
330
C
100
AcDbDictionary
281
     1
  3
Normal
350
F
100
AcDbDictionaryWithDefault
340
F
  0
DICTIONARY
  5
174
102
{ACAD_REACTORS
330
C
102
}
330
C
100
AcDbDictionary
  3
CEPSNTYPE
350
17E
  3
FINGERPRINTGUID
350
17F
  3
HYPERLINKBASE
350
177
  3
INSUNITS
350
17D
  3
LAYOUTDICT
350
179
  3
LWETCUNION
350
17C
  3
PLOTSETDICT
350
17A
  3
PLOTSTYLNAMDICT
350
17B
  3
PSVPSCALE
350
181
  3
PUCSBASE
350
184
  3
PUCSORGBACK
350
18A
  3
PUCSORGBOTTOM
350
186
  3
PUCSORGFRONT
350
189
  3
PUCSORGLEFT
350
187
  3
PUCSORGRIGHT
350
188
  3
PUCSORGTOP
350
185
  3
PUCSORTHOREF
350
182
  3
PUCSORTHOVIEW
350
183
  3
STYLESHEET
350
178
  3
TSTACKALIGN
350
175
  3
TSTACKSIZE
350
176
  3
UCSBASE
350
18D
  3
UCSORGBACK
350
193
  3
UCSORGBOTTOM
350
18F
  3
UCSORGFRONT
350
192
  3
UCSORGLEFT
350
190
  3
UCSORGRIGHT
350
191
  3
UCSORGTOP
350
18E
  3
UCSORTHOREF
350
18B
  3
UCSORTHOVIEW
350
18C
  3
VERSIONGUID
350
180
  0
XRECORD
  5
197
102
{ACAD_REACTORS
330
196
102
}
330
196
100
AcDbXrecord
340
1F
  0
XRECORD
  5
195
102
{ACAD_REACTORS
330
194
102
}
330
194
100
AcDbXrecord
340
1B
  0
MLINESTYLE
  5
18
102
{ACAD_REACTORS
330
17
102
}
330
17
100
AcDbMlineStyle
  2
STANDARD
 70
     0
  3

 62
   256
 51
90.0
 52
90.0
 71
     2
 49
0.5
 62
   256
  6
BYLAYER
 49
-0.5
 62
   256
  6
BYLAYER
  0
ACDBPLACEHOLDER
  5
F
102
{ACAD_REACTORS
330
E
102
}
330
E
100
AcDbPlaceHolder
280
     0
  0
XRECORD
  5
17E
102
{ACAD_REACTORS
330
174
102
}
330
174
100
AcDbXrecord
 90
        0
  0
XRECORD
  5
17F
102
{ACAD_REACTORS
330
174
102
}
330
174
100
AcDbXrecord
  1
{DC175E3D-AE85-11D5-9A93-0040C77E826B}
  0
XRECORD
  5
177
102
{ACAD_REACTORS
330
174
102
}
330
174
100
AcDbXrecord
  1

  0
XRECORD
  5
17D
102
{ACAD_REACTORS
330
174
102
}
330
174
100
AcDbXrecord
 90
        1
  0
XRECORD
  5
179
102
{ACAD_REACTORS
330
174
102
}
330
174
100
AcDbXrecord
340
1A
  0
XRECORD
  5
17C
102
{ACAD_REACTORS
330
174
102
}
330
174
100
AcDbXrecord
 90
    10781
  0
XRECORD
  5
17A
102
{ACAD_REACTORS
330
174
102
}
330
174
100
AcDbXrecord
340
19
  0
XRECORD
  5
17B
102
{ACAD_REACTORS
330
174
102
}
330
174
100
AcDbXrecord
340
E
  0
XRECORD
  5
181
102
{ACAD_REACTORS
330
174
102
}
330
174
100
AcDbXrecord
 40
0.0
  0
XRECORD
  5
184
102
{ACAD_REACTORS
330
174
102
}
330
174
100
AcDbXrecord
340
0
  0
XRECORD
  5
18A
102
{ACAD_REACTORS
330
174
102
}
330
174
100
AcDbXrecord
 10
0.0
 20
0.0
 30
0.0
  0
XRECORD
  5
186
102
{ACAD_REACTORS
330
174
102
}
330
174
100
AcDbXrecord
 10
0.0
 20
0.0
 30
0.0
  0
XRECORD
  5
189
102
{ACAD_REACTORS
330
174
102
}
330
174
100
AcDbXrecord
 10
0.0
 20
0.0
 30
0.0
  0
XRECORD
  5
187
102
{ACAD_REACTORS
330
174
102
}
330
174
100
AcDbXrecord
 10
0.0
 20
0.0
 30
0.0
  0
XRECORD
  5
188
102
{ACAD_REACTORS
330
174
102
}
330
174
100
AcDbXrecord
 10
0.0
 20
0.0
 30
0.0
  0
XRECORD
  5
185
102
{ACAD_REACTORS
330
174
102
}
330
174
100
AcDbXrecord
 10
0.0
 20
0.0
 30
0.0
  0
XRECORD
  5
182
102
{ACAD_REACTORS
330
174
102
}
330
174
100
AcDbXrecord
340
0
  0
XRECORD
  5
183
102
{ACAD_REACTORS
330
174
102
}
330
174
100
AcDbXrecord
 70
     0
  0
XRECORD
  5
178
102
{ACAD_REACTORS
330
174
102
}
330
174
100
AcDbXrecord
  1

  0
XRECORD
  5
175
102
{ACAD_REACTORS
330
174
102
}
330
174
100
AcDbXrecord
 90
        1
  0
XRECORD
  5
176
102
{ACAD_REACTORS
330
174
102
}
330
174
100
AcDbXrecord
 90
       70
  0
XRECORD
  5
18D
102
{ACAD_REACTORS
330
174
102
}
330
174
100
AcDbXrecord
340
0
  0
XRECORD
  5
193
102
{ACAD_REACTORS
330
174
102
}
330
174
100
AcDbXrecord
 10
0.0
 20
0.0
 30
0.0
  0
XRECORD
  5
18F
102
{ACAD_REACTORS
330
174
102
}
330
174
100
AcDbXrecord
 10
0.0
 20
0.0
 30
0.0
  0
XRECORD
  5
192
102
{ACAD_REACTORS
330
174
102
}
330
174
100
AcDbXrecord
 10
0.0
 20
0.0
 30
0.0
  0
XRECORD
  5
190
102
{ACAD_REACTORS
330
174
102
}
330
174
100
AcDbXrecord
 10
0.0
 20
0.0
 30
0.0
  0
XRECORD
  5
191
102
{ACAD_REACTORS
330
174
102
}
330
174
100
AcDbXrecord
 10
0.0
 20
0.0
 30
0.0
  0
XRECORD
  5
18E
102
{ACAD_REACTORS
330
174
102
}
330
174
100
AcDbXrecord
 10
0.0
 20
0.0
 30
0.0
  0
XRECORD
  5
18B
102
{ACAD_REACTORS
330
174
102
}
330
174
100
AcDbXrecord
340
0
  0
XRECORD
  5
18C
102
{ACAD_REACTORS
330
174
102
}
330
174
100
AcDbXrecord
 70
     0
  0
XRECORD
  5
180
102
{ACAD_REACTORS
330
174
102
}
330
174
100
AcDbXrecord
  1
{C22E712E-11DC-40B0-8A56-52B87EE744BC}
  0
ENDSEC
  0
EOF
